0
0
0
0
New user, please take the time to login or sign up today!


advertisement



Reply
 
Thread Tools
Old Feb 10 '14, 06:11 AM   #1 (permalink)
 
bookreader's Avatar
 
Status: Extreme User
Join Date: Sep 21 '13
Posts: 34
bookreader will become famous soon enoughbookreader will become famous soon enoughbookreader will become famous soon enoughbookreader will become famous soon enoughbookreader will become famous soon enoughbookreader will become famous soon enoughbookreader will become famous soon enoughbookreader will become famous soon enough
Thumbs up Viswaroopam (2013) - Malayalam - XviD - DVDRip - Esubs - [DesiTorrents.com]

Viswaroopam (2013) - Malayalam - XviD - DVDRip - Esubs - [DesiTorrents.com]

Poster


Movie nFo
Quote  Quote:
Directed by Kamal Haasan
Produced by
S. Chandrahasan
Kamal Haasan
Prasad Vara Potluri[1][2][3]
Written by Kamal Haasan
Atul Tiwari
Starring Kamal Haasan
Rahul Bose
Pooja Kumar
Andrea Jeremiah
Jaideep Ahlawat
Music by Shankar-Ehsaan-Loy
Cinematography Sanu Varghese
Editing by Mahesh Narayanan
Studio Raaj Kamal Films International
Distributed by PVP Cinema
Balaji Motion Pictures
Release dates
25 January 2013 (In Tamil and Telugu:
Worldwide except Tamil Nadu[4])
1 February 2013 (Hindi version)
7 February 2013 (Tamil Nadu[5])
Running time 149 minutes[6]
Country India
Language
Tamil
Hindi
Malayalam
Budget INR950 million (US$15 million)
Media nFo
Quote  Quote:
General
Format : AVI
Format/Info : Audio Video Interleave
File size : 700 MiB
Duration : 2h 28mn
Overall bit rate : 660 Kbps

Video
ID : 0
Format : MPEG-4 Visual
Format profile : Simple@L3
Format settings, BVOP : No
Format settings, QPel : No
Format settings, GMC : No warppoints
Format settings, Matrix : Default (H.263)
Codec ID : XVID
Codec ID/Hint : XviD
Duration : 2h 28mn
Bit rate : 567 Kbps
Width : 624 pixels
Height : 256 pixels
Display aspect ratio : 2.40:1
Frame rate : 23.976 fps
Color space : YUV
Chroma subsampling : 4:2:0
Bit depth : 8 bits
Scan type : Progressive
Compression mode : Lossy
Bits/(Pixel*Frame) : 0.148
Stream size : 602 MiB (86%)
Writing library : XviD 1.1.2 (UTC 2006-11-01)

Audio
ID : 1
Format : MPEG Audio
Format version : Version 1
Format profile : Layer 3
Mode : Joint stereo
Mode extension : MS Stereo
Codec ID : 55
Codec ID/Hint : MP3
Duration : 2h 28mn
Source duration : 2h 28mn
Bit rate mode : Constant
Bit rate : 80.0 Kbps
Channel(s) : 2 channels
Sampling rate : 48.0 KHz
Compression mode : Lossy
Stream size : 84.9 MiB (12%)
Alignment : Split accross interleaves
Interleave, duration : 24 ms (0.58 video frame)
Writing library : LAME3.98
ScreenShots






-:Maintain 1:1 Ratio :-
Attached Files
File Type: torrent Viswaroopam (2013) - Malayalam - XviD - DVDRip - Esubs - [DesiTorrents.com].torrent (55.2 KB, 161 views, size: 700.51 mb, seeders: 2, completed: 105)
Name Size
bookreader is offline  

The Following 13 Users Say Thank You to bookreader For This Useful Post:

5 Latest Releases by bookreader in Malayalam
Thread Seeders Leechers Completed Replies Views Last Post
      [MiniDVD]    Salala Mobiles (2014) - Malayalam - API DVD5 -... 4 1 12 0 277 Apr 22 '14 05:20 AM by bookreader
      [XviD]    Weeping Boy 2014 - XVID - 700MB - AC3-5.1 - ESub... 23 6 138 0 943 Apr 21 '14 11:37 PM by bookreader
      [DVD-R]    Vishudhan (2014) - Malayalam - AP DVD Rip - X264... 11 0 861 13 2843 Feb 22 '14 04:59 PM by MisDOLLIee
      [DVD-R]    Hai Ramcharan (2014) - Malayalam - DVDRip - 1CD -... 0 0 157 3 2780 Feb 19 '14 02:57 PM by altecher
      [DVD-R]    For Sale (2013) - Malayalam - DvdRip - x264 - AAC... 4 0 344 6 2229 Feb 17 '14 04:47 PM by atractiva

Old Feb 10 '14, 02:51 PM   #2 (permalink)
 
Status: Extreme User
Join Date: Apr 02 '07
Posts: 3,085
jayesh2820 is on a distinguished roadjayesh2820 is on a distinguished road
Default Re: Viswaroopam (2013) - Malayalam - XviD - DVDRip - Esubs - [DesiTorrents.com]

thnx for sharing
jayesh2820 is offline  
Reply With Quote
Old Feb 10 '14, 05:45 PM   #3 (permalink)
 
Status: Power User
Join Date: Mar 13 '07
Posts: 282
microbehunter is on a distinguished roadmicrobehunter is on a distinguished roadmicrobehunter is on a distinguished roadmicrobehunter is on a distinguished road
Default Re: Viswaroopam (2013) - Malayalam - XviD - DVDRip - Esubs - [DesiTorrents.com]

thanks for the movie
microbehunter is online now  
Reply With Quote
Old Feb 10 '14, 07:39 PM   #4 (permalink)
 
Status: junkie
Join Date: Feb 07 '09
Posts: 163
puthuppally is an unknown quantity at this point
Default Re: Viswaroopam (2013) - Malayalam - XviD - DVDRip - Esubs - [DesiTorrents.com]

Quote   Quote: Originally Posted by jayesh2820 View Post
thnx for sharing
thank you very much
puthuppally is offline  
Reply With Quote
Reply


advertisement



Tags
2013, malayalam, viswaroopam, xvid

« Viswaroopam (2013) - Malayalam - AP International DVD9 - [DesiTorrents.com] | Zachariyayude Garbhinikal (2013) - DVDRip - x264 - ESub - [Team Telly] »
Thread Tools