0
0
0
0
New user, please take the time to login or sign up today!


advertisement



Reply
 
Thread Tools
Old Nov 09 '13, 11:23 PM   #1 (permalink)
 
_T_R_A_C_K_E_R_'s Avatar
 
Status: Meticulous
Join Date: Feb 06 '07
Posts: 1,350
_T_R_A_C_K_E_R_ has much to be proud of_T_R_A_C_K_E_R_ has much to be proud of_T_R_A_C_K_E_R_ has much to be proud of
_T_R_A_C_K_E_R_ has much to be proud of_T_R_A_C_K_E_R_ has much to be proud of_T_R_A_C_K_E_R_ has much to be proud of_T_R_A_C_K_E_R_ has much to be proud of_T_R_A_C_K_E_R_ has much to be proud of_T_R_A_C_K_E_R_ has much to be proud of_T_R_A_C_K_E_R_ has much to be proud of_T_R_A_C_K_E_R_ has much to be proud of_T_R_A_C_K_E_R_ has much to be proud of_T_R_A_C_K_E_R_ has much to be proud of_T_R_A_C_K_E_R_ has much to be proud of
Post Bigg Boss - Season 7 - 9th November 2013 - FULL EPISODE - 1080p HD




Bigg Boss - Season 7 - 9th November 2013 - FULL EPISODE - 1080p HD - WeBRiP


Technical Information

Code  Code:
General

Complete name                            : Bigg Boss - Season 7 - 9th November 2013 - FULL EPISODE - 1080p HD.mkv
Format                                   : Matroska
Format version                           : Version 4 / Version 2
File size                                : 1.05 GiB
Duration                                 : 44mn 19s
Overall bit rate                         : 3 379 Kbps
Encoded date                             : UTC 2013-11-09 20:59:01
Writing application                      : mkvmerge v6.5.0 ('Isn't she lovely') built on Oct 20 2013 12:50:05
Writing library                          : libebml v1.3.0 + libmatroska v1.4.1

Video
ID                                       : 1
Format                                   : AVC
Format/Info                              : Advanced Video Codec
Format profile                           : High@L4.0
Format settings, CABAC                   : Yes
Format settings, ReFrames                : 2 frames
Codec ID                                 : V_MPEG4/ISO/AVC
Duration                                 : 44mn 19s
Bit rate                                 : 2 991 Kbps
Width                                    : 1 920 pixels
Height                                   : 1 080 pixels
Display aspect ratio                     : 16:9
Frame rate mode                          : Constant
Frame rate                               : 25.000 fps
Color space                              : YUV
Chroma subsampling                       : 4:2:0
Bit depth                                : 8 bits
Scan type                                : Progressive
Bits/(Pixel*Frame)                       : 0.058
Stream size                              : 948 MiB (89%)
Language                                 : Hindi
Default                                  : Yes
Forced                                   : No

Audio
ID                                       : 2
Format                                   : AC-3
Format/Info                              : Audio Coding 3
Mode extension                           : CM (complete main)
Format settings, Endianness              : Big
Codec ID                                 : A_AC3
Duration                                 : 44mn 19s
Bit rate mode                            : Constant
Bit rate                                 : 320 Kbps
Channel(s)                               : 6 channels
Channel positions                        : Front: L C R, Side: L R, LFE
Sampling rate                            : 48.0 KHz
Bit depth                                : 16 bits
Compression mode                         : Lossy
Stream size                              : 101 MiB (9%)
Language                                 : Hindi
Default                                  : Yes
Forced                                   : No

Screen Shots




If You find this post useful and worth watching, Please click on THANKS button.









Attached Files
File Type: torrent Bigg Boss - Season 7 - 9th November 2013 - FULL EPISODE - 1080p HD.torrent (42.1 KB, 60 views, size: 1.05 gb, completed: 43)
Name Size
__________________
Proud To Be An Indian
_T_R_A_C_K_E_R_ is offline  

The Following 9 Users Say Thank You to _T_R_A_C_K_E_R_ For This Useful Post:

5 Latest Releases by _T_R_A_C_K_E_R_ in Colors
Thread Seeders Leechers Completed Replies Views Last Post
         Comedy Nights with Kapil - Episode 63 - March 23... 6 0 241 4 895 Mar 26 '14 12:12 AM by Sahel Khan
         Comedy Nights with Kapil - Episode 62 - March 22... 6 1 134 1 850 Mar 25 '14 02:46 AM by Sahel Khan
         Comedy Nights with Kapil - Episode 56 - Feb 23... 10 0 402 12 1910 Feb 26 '14 04:42 AM by havish
         Comedy Nights with Kapil - Episode 55 - Feb 22... 8 0 351 6 3074 Feb 23 '14 05:07 AM by rautprayag_86
         Comedy Nights with Kapil - Episode 55 - Feb 22... 4 1 423 7 1473 Feb 23 '14 05:02 AM by havish

Old Nov 09 '13, 11:30 PM   #2 (permalink)
 
Status: Banned
Join Date: Apr 30 '12
Location: Team Telly HQ
Posts: 73
iC0n has a spectacular aura aboutiC0n has a spectacular aura aboutiC0n has a spectacular aura aboutiC0n has a spectacular aura aboutiC0n has a spectacular aura aboutiC0n has a spectacular aura aboutiC0n has a spectacular aura aboutiC0n has a spectacular aura aboutiC0n has a spectacular aura aboutiC0n has a spectacular aura aboutiC0n has a spectacular aura about
Default Re: Bigg Boss - Season 7 - 9th November 2013 - FULL EPISODE - 1080p HD

Gauhar, Pratyusha & Kamya all suck! They should be kicked out!
Pratyusha should be butchered in public.
iC0n is offline  
Reply With Quote
Old Nov 10 '13, 10:19 AM   #3 (permalink)
 
Status: insane
Join Date: Apr 21 '13
Posts: 328
leechumaharathi will become famous soon enoughleechumaharathi will become famous soon enoughleechumaharathi will become famous soon enoughleechumaharathi will become famous soon enoughleechumaharathi will become famous soon enoughleechumaharathi will become famous soon enough
Default Re: Bigg Boss - Season 7 - 9th November 2013 - FULL EPISODE - 1080p HD

Quote   Quote: Originally Posted by iC0n View Post
Gauhar, Pratyusha & Kamya all suck! They should be kicked out!
Pratyusha should be butchered in public.
Let off some steam iC0n.
leechumaharathi is offline  
Reply With Quote
Old Nov 10 '13, 10:23 AM   #4 (permalink)
 
Status: insane
Join Date: Apr 21 '13
Posts: 328
leechumaharathi will become famous soon enoughleechumaharathi will become famous soon enoughleechumaharathi will become famous soon enoughleechumaharathi will become famous soon enoughleechumaharathi will become famous soon enoughleechumaharathi will become famous soon enough
Thumbs up Re: Bigg Boss - Season 7 - 9th November 2013 - FULL EPISODE - 1080p HD

Thanks a lot _T_R_A_C_K_E_R_bhai. "Tussi great ho"
leechumaharathi is offline  
Reply With Quote
Reply


advertisement



Tags
1080p, 2013, 9th, bigg, boss, episode, november, season

« Bigg Boss Saath-7 - S07E56 - 09th November 2013 - 720p - MKV - Full Episode (HD) | Bigg Boss - 8th November 2013 - Full Episode (SD) - 360p WeBRiP - [Team ExDR] »
Thread Tools